红番区[国粤英多音轨/简繁英字幕].Rumble.in.the.Bronx.1995.BluRay.1080p.x265.10bit.3Audio-MiniHD 4.40GB

版主小s 2022-7-5 1083

✔资源类型:暂未分类   ✔电影年份:更 早   ✔电影地区:香港   ✔电影分类:喜剧

◎标  题 红番区
◎译  名 Rumble in the Bronx / Red Bronx / Hung faan keoi
◎片  名 紅番區
◎年  代 1995
◎产  地 中国香港
◎类  别 喜剧 / 动作 / 犯罪
◎语  言 粤语 / 英语
◎上映日期 1995-01-29(中国大陆) / 1995-01-21(中国香港) / 1996-02-23(美国)
◎IMDb评分 6.7/10 (41974人评价)
◎IMDb链接 https://www.imdb.com/title/tt0113326/
◎豆瓣评分 7.7/10 (89103人评价)
◎豆瓣链接 https://movie.douban.com/subject/1296011/
◎片  长 104分钟
◎导  演 唐季礼 Stanley Tong
◎编  剧 马美萍 Fibe Ma
       邓景生 Edward Tang
◎演  员 成龙 Jackie Chan
       梅艳芳 Anita Mui
       叶芳华 Françoise Yip
       董骠 Bill Tung
       马克·阿克斯 Marc Akerstream
       加文·克罗斯 Garvin Cross
       Morgan Lam Morgan Lam
       薛春炜 Ailen Sit
       陈文清 Man-Ching Chan
       弗雷德·安德鲁奇 Fred Andrucci
       马克·安东尼克 Mark Antoniuk
       劳洛·查坦德 Lauro Chartrand
       克里斯·弗兰科 Chris Franco
       兰斯·吉布森 Lance Gibson
       David Hooper David Hooper
       克里斯·洛德 Kris Lord
       Richard Faraci Richard Faraci
       Carrie Cain-Sparks Carrie Cain-Sparks
       Guyle Fraizer Guyle Fraizer
       David Fredericks David Fredericks
       程可为 Ho-Wai Ching
       陆剑明 Jamie Luk
       高雄 Eddy Ko
       雷安娜 Annabelle Louie
       周华健 Emil Wakin Chau
       杜德伟 Alex To
       陈英明 Glen Chin
       Lee Sollenberger Lee Sollenberger
       岳华 Hua Yueh
       户田惠子 Keiko Toda
       何冠昌 Leonard Ho
       董韵诗 Barbie Tung
       王宗贤 Nathan Wang
       马楚成 Jingle Ma
       陈俊杰 Henry Chan
       张耀宗 Peter Cheung
       黄锐民 Oliver Wong
       郑伟明 William Cheng
       李忠志 Chung Chi Li
       成龙 Jackie Chan

◎简  介
  货车司机黄家驹(成龙)赴美向移居美国的骠叔祝贺新婚之喜,知晓其打算婚后与黑人妻子过安静的晚年生活,经营多年的超级市场也已卖给了年轻寡妇Elaine(梅艳芳)经营。由于一见面就对Elaine有好感,黄家驹主动协助Elaine打点起业务来。                                    
                                不久,以Johnny为首的一帮朋克党开始恶意捣乱破坏超市,面对他们,黄家驹面无惧色勇敢地用起了自己的拳头,同时不忘晓他们以人生大义,然而这波未平那波又起,黄家驹又被卷入了钻石赃物被盗的漩涡,受到了黑手党的追杀。
  1. ##### MediaInfo ######
  2. General
  3. Unique ID                                : 210810904648743932963065007543329645803 (0x9E98B411258DEA7AB926EA00DA8E64EB)
  4. Complete name                            : Rumble.in.the.Bronx.1995.BluRay.1080p.x265.10bit.3Audio-MiniHD.mkv
  5. Format                                   : Matroska
  6. Format version                           : Version 4
  7. File size                                : 4.40 GiB
  8. Duration                                 : 1 h 29 min
  9. Overall bit rate                         : 7 029 kb/s
  10. Encoded date                             : UTC 2018-03-02 17:07:53
  11. Writing application                      : mkvmerge v21.0.0 ('Tardigrades Will Inherit The Earth') 64-bit
  12. Writing library                          : libebml v1.3.5 + libmatroska v1.4.8
  13. Video
  14. ID                                       : 1
  15. Format                                   : HEVC
  16. Format/Info                              : High Efficiency Video Coding
  17. Format profile                           : Main 10@L4@High
  18. Codec ID                                 : V_MPEGH/ISO/HEVC
  19. Duration                                 : 1 h 29 min
  20. Bit rate                                 : 5 950 kb/s
  21. Width                                    : 1 920 pixels
  22. Height                                   : 800 pixels
  23. Display aspect ratio                     : 2.40:1
  24. Frame rate mode                          : Constant
  25. Frame rate                               : 23.976 (24000/1001/53354) FPS
  26. Color space                              : YUV
  27. Chroma subsampling                       : 4:2:0
  28. Bit depth                                : 10 bits
  29. Bits/(Pixel*Frame)                       : 0.162
  30. Stream size                              : 3.72 GiB (85%)
  31. Writing library                          : x265 2.7+1-2aa737a99f51:[Windows][MSVC 1900][64 bit] 10bit
  32. Encoding settings                        : cpuid=533541173503 / frame-threads=2 / numa-pools=4 / wpp / no-pmode / no-pme / no-psnr / no-ssim / log-level=2 / input-csp=1 / input-res=1920x800 / interlace=0 / total-frames=128917 / level-idc=0 / high-tier=1 / uhd-bd=0 / ref=5 / no-allow-non-conformance / no-repeat-headers / annexb / no-aud / no-hrd / info / hash=0 / no-temporal-layers / no-open-gop / min-keyint=1 / keyint=360 / gop-lookahead=0 / bframes=8 / b-adapt=2 / b-pyramid / bframe-bias=0 / rc-lookahead=60 / lookahead-slices=4 / NTMzNTQ=uuDQuD2mJt9fsCf / scenecut=40 / radl=0 / no-intra-refresh / ctu=32 / min-cu-size=8 / no-rect / no-amp / max-tu-size=16 / tu-inter-depth=2 / tu-intra-depth=2 / limit-tu=4 / rdoq-level=1 / dynamic-rd=0.00 / ssim-rd / signhide / no-tskip / nr-intra=0 / nr-inter=0 / no-constrained-intra / no-strong-intra-smoothing / max-merge=3 / limit-refs=2 / limit-modes / me=3 / subme=5 / merange=25 / temporal-mvp / weightp / weightb / no-analyze-src-pics / deblock=-1:-1 / no-sao / no-sao-non-deblock / rd=4 / no-early-skip / rskip / no-fast-intra / no-tskip-fast / no-cu-lossless / b-intra / no-splitrd-skip / rdpenalty=1 / psy-rd=0.00 / psy-rdoq=1.20 / no-rd-refine / no-lossless / cbqpoffs=-2 / crqpoffs=-2 / rc=crf / crf=20.0 / qcomp=0.65 / qpstep=4 / stats-write=0 / stats-read=0 / vbv-maxrate=28000 / vbv-bufsize=30000 / vbv-init=0.9 / crf-max=0.0 / crf-min=0.0 / ipratio=1.40 / pbratio=1.30 / aq-mode=2 / aq-strength=0.80 / cutree / zone-count=0 / no-strict-cbr / qg-size=16 / no-rc-grain / qpmax=69 / qpmin=0 / no-const-vbv / sar=0 / overscan=0 / videoformat=5 / range=0 / colorprim=1 / transfer=2 / colormatrix=2 / chromaloc=0 / display-window=0 / max-cll=0,0 / min-luma=0 / max-luma=1023 / log2-max-poc-lsb=8 / vui-timing-info / vui-hrd-info / slices=1 / no-opt-qp-pps / no-opt-ref-list-length-pps / no-multi-pass-opt-rps / scenecut-bias=0.05 / no-opt-cu-delta-qp / no-aq-motion / no-hdr / no-hdr-opt / no-dhdr10-opt / analysis-reuse-level=5 / scale-factor=0 / refine-intra=0 / refine-inter=0 / refine-mv=0 / no-limit-sao / ctu-info=0 / no-lowpass-dct / refine-mv-type=0 / copy-pic=1
  33. Default                                  : Yes
  34. Forced                                   : No
  35. Color range                              : Limited
  36. Color primaries                          : BT.709
  37. Audio #1
  38. ID                                       : 2
  39. Format                                   : AC-3
  40. Format/Info                              : Audio Coding 3
  41. Commercial name                          : Dolby Digital
  42. Codec ID                                 : A_AC3
  43. Duration                                 : 1 h 29 min
  44. Bit rate mode                            : Constant
  45. Bit rate                                 : 640 kb/s
  46. Channel(s)                               : 6 channels
  47. Channel layout                           : L R C LFE Ls Rs
  48. Sampling rate                            : 48.0 kHz
  49. Frame rate                               : 31.250 FPS (1536 SPF)
  50. Compression mode                         : Lossy
  51. Stream size                              : 410 MiB (9%)
  52. Title                                    : English
  53. Language                                 : English
  54. Service kind                             : Complete Main
  55. Default                                  : Yes
  56. Forced                                   : No
  57. Audio #2
  58. ID                                       : 3
  59. Format                                   : AC-3
  60. Format/Info                              : Audio Coding 3
  61. Commercial name                          : Dolby Digital
  62. Codec ID                                 : A_AC3
  63. Duration                                 : 1 h 29 min
  64. Bit rate mode                            : Constant
  65. Bit rate                                 : 192 kb/s
  66. Channel(s)                               : 2 channels
  67. Channel layout                           : L R
  68. Sampling rate                            : 48.0 kHz
  69. Frame rate                               : 31.250 FPS (1536 SPF)
  70. Compression mode                         : Lossy
  71. Delay relative to video                  : 3 ms
  72. Stream size                              : 123 MiB (3%)
  73. Title                                    : 粤语音轨
  74. Language                                 : Chinese
  75. Service kind                             : Complete Main
  76. Default                                  : No
  77. Forced                                   : No
  78. Audio #3
  79. ID                                       : 4
  80. Format                                   : AC-3
  81. Format/Info                              : Audio Coding 3
  82. Commercial name                          : Dolby Digital
  83. Codec ID                                 : A_AC3
  84. Duration                                 : 1 h 29 min
  85. Bit rate mode                            : Constant
  86. Bit rate                                 : 192 kb/s
  87. Channel(s)                               : 2 channels
  88. Channel layout                           : L R
  89. Sampling rate                            : 48.0 kHz
  90. Frame rate                               : 31.250 FPS (1536 SPF)
  91. Compression mode                         : Lossy
  92. Delay relative to video                  : 3 ms
  93. Stream size                              : 123 MiB (3%)
  94. Title                                    : 国语音轨
  95. Language                                 : Chinese
  96. Service kind                             : Complete Main
  97. Default                                  : No
  98. Forced                                   : No
  99. Text #1
  100. ID                                       : 5
  101. Format                                   : PGS
  102. Muxing mode                              : zlib
  103. Codec ID                                 : S_HDMV/PGS
  104. Codec ID/Info                            : Picture based subtitle format used on BDs/HD-DVDs
  105. Duration                                 : 1 h 22 min
  106. Bit rate                                 : 22.0 kb/s
  107. Count of elements                        : 1770
  108. Stream size                              : 12.9 MiB (0%)
  109. Title                                    : 粤语繁体
  110. Language                                 : Chinese
  111. Default                                  : Yes
  112. Forced                                   : No
  113. Text #2
  114. ID                                       : 6
  115. Format                                   : PGS
  116. Muxing mode                              : zlib
  117. Codec ID                                 : S_HDMV/PGS
  118. Codec ID/Info                            : Picture based subtitle format used on BDs/HD-DVDs
  119. Duration                                 : 1 h 22 min
  120. Bit rate                                 : 21.2 kb/s
  121. Count of elements                        : 1770
  122. Stream size                              : 12.4 MiB (0%)
  123. Title                                    : 粤语简体
  124. Language                                 : Chinese
  125. Default                                  : No
  126. Forced                                   : No
  127. Text #3
  128. ID                                       : 7
  129. Format                                   : PGS
  130. Muxing mode                              : zlib
  131. Codec ID                                 : S_HDMV/PGS
  132. Codec ID/Info                            : Picture based subtitle format used on BDs/HD-DVDs
  133. Duration                                 : 1 h 22 min
  134. Bit rate                                 : 22.2 kb/s
  135. Count of elements                        : 1799
  136. Stream size                              : 13.0 MiB (0%)
  137. Title                                    : 国语繁体
  138. Language                                 : Chinese
  139. Default                                  : No
  140. Forced                                   : No
  141. Text #4
  142. ID                                       : 8
  143. Format                                   : PGS
  144. Muxing mode                              : zlib
  145. Codec ID                                 : S_HDMV/PGS
  146. Codec ID/Info                            : Picture based subtitle format used on BDs/HD-DVDs
  147. Duration                                 : 1 h 22 min
  148. Bit rate                                 : 21.3 kb/s
  149. Count of elements                        : 1799
  150. Stream size                              : 12.5 MiB (0%)
  151. Title                                    : 国语简体
  152. Language                                 : Chinese
  153. Default                                  : No
  154. Forced                                   : No
  155. Text #5
  156. ID                                       : 9
  157. Format                                   : PGS
  158. Muxing mode                              : zlib
  159. Codec ID                                 : S_HDMV/PGS
  160. Codec ID/Info                            : Picture based subtitle format used on BDs/HD-DVDs
  161. Duration                                 : 1 h 20 min
  162. Bit rate                                 : 22.2 kb/s
  163. Count of elements                        : 1604
  164. Stream size                              : 12.8 MiB (0%)
  165. Title                                    : 原盘英文
  166. Language                                 : English
  167. Default                                  : No
  168. Forced                                   : No
  169. Menu
  170. 00:00:00.000                             : en:Chapter 1
  171. 00:01:57.117                             : en:Chapter 2
  172. 00:05:21.279                             : en:Chapter 3
  173. 00:10:45.936                             : en:Chapter 4
  174. 00:13:53.040                             : en:Chapter 5
  175. 00:16:20.813                             : en:Chapter 6
  176. 00:21:56.064                             : en:Chapter 7
  177. 00:27:02.787                             : en:Chapter 8
  178. 00:30:35.875                             : en:Chapter 9
  179. 00:35:36.050                             : en:Chapter 10
  180. 00:44:39.927                             : en:Chapter 11
  181. 00:48:09.052                             : en:Chapter 12
  182. 00:49:46.817                             : en:Chapter 13
  183. 00:52:03.203                             : en:Chapter 14
  184. 00:57:56.347                             : en:Chapter 15
  185. 01:02:49.474                             : en:Chapter 16
  186. 01:07:33.841                             : en:Chapter 17
  187. 01:13:00.626                             : en:Chapter 18
  188. 01:16:01.932                             : en:Chapter 19
  189. 01:21:05.527                             : en:Chapter 20
  190. 01:22:50.173                             : en:Chapter 21
  191. 01:26:04.993                             : en:Chapter 22





此处一般会放置磁力链或种子下载链接,不过此链接需要注册会员才能看到,点击“立即注册”
磁力链下载【下载链接仅对注册会员开放,登陆后可见】
BT9527电影天堂 1、BT9527电影天堂提供的BT文件均来源于互联网抓取,只供网友学习交流、技术提升使用。
2、我们遵守BitTorrent点对点协议原则,任何版权问题请联系原资源发布商,我们不处理任何版权纠纷,谢谢!如有争议请联系邮箱:BT9527#hotmail.com(#换成@)
3、如果您发现某页面或地址有错误,请联系站长邮箱BT9527#hotmail.com(#换成@),我们会尽快处理。您的热心是对BT9527电影天堂最大的支持。
4、本站建议去正规影院观看电影以支持电影行业发展。
最新回复 (1)

你可以在 登录 or 注册 后,对此帖发表评论!

返回
发新帖