不可撤销[简繁字幕].Irreversible.2002.BluRay.1080p.x265.10bit-MiniHD 4.94GB

版主小s 2022-7-3 1159

✔资源类型:暂未分类   ✔电影年份:更 早   ✔电影地区:其他   ✔电影分类:剧情

◎标  题 不可撤销
◎译  名 无可挽回(港) / 不可逆转(台) / Irreversible
◎片  名 Irréversible
◎年  代 2002
◎产  地 法国
◎类  别 剧情 / 惊悚 / 情色 / 犯罪
◎语  言 法语 / 西班牙语 / 意大利语 / 英语
◎上映日期 2002年5月24日
◎IMDb评分 7.4/10 (123837人评价)
◎IMDb链接 https://www.imdb.com/title/tt0290673/
◎豆瓣评分 6.8/10 (45589人评价)
◎豆瓣链接 https://movie.douban.com/subject/1296935/
◎片  长 97 分钟
◎导  演 加斯帕·诺
◎编  剧 加斯帕·诺
◎演  员 莫妮卡·贝鲁奇
       文森特·卡索
       阿尔贝·杜邦泰尔
       乔·普雷斯蒂亚
       菲利普·纳翁

◎简  介
  整部影片用倒带一样的叙述方式,不断往前追溯,令人感到宿命的不可逃避。
                                    
                                爱里克斯(莫妮卡•贝鲁齐 Monica Bellucci饰)亮丽性感,独自行走在城市的地下道,却被酒醉的歹徒盯上。歹徒残忍的对她强暴施虐,让她美丽的脸庞变得血肉模糊。于是, 她的服了摇头丸的男友马尔克什(文森特·卡塞尔 Vincent Cassel 饰),带着朋友闯进各式各样的酒吧,寻找凶手报仇。他们意识接近失控,举起灭火筒猛砸疑凶脑袋。
                                    
                                然而,就在这些血腥的事件之前,爱里克斯和男友过着幸福生活,他们感情甜腻,爱里克斯腹中还有了男友的孩子。然而,在接下来的12个小时里,所有的线索,都不可撤消的把爱里克斯引向了那个噩梦般的深渊。
  1. ##### MediaInfo ######
  2. General
  3. Unique ID                                : 266782124729909060159646864025794117245 (0xC8B45E46945C68C2E4B5C534F50BFE7D)
  4. Complete name                            : Irreversible.2002.BluRay.1080p.x265.10bit-MiniHD.mkv
  5. Format                                   : Matroska
  6. Format version                           : Version 4
  7. File size                                : 4.94 GiB
  8. Duration                                 : 1 h 37 min
  9. Overall bit rate                         : 7 263 kb/s
  10. Encoded date                             : UTC 2018-02-07 12:25:20
  11. Writing application                      : mkvmerge v20.0.0 ('I Am The Sun') 64-bit
  12. Writing library                          : libebml v1.3.5 + libmatroska v1.4.8
  13. Video
  14. ID                                       : 1
  15. Format                                   : HEVC
  16. Format/Info                              : High Efficiency Video Coding
  17. Format profile                           : Main 10@L4@High
  18. Codec ID                                 : V_MPEGH/ISO/HEVC
  19. Duration                                 : 1 h 37 min
  20. Bit rate                                 : 6 601 kb/s
  21. Width                                    : 1 920 pixels
  22. Height                                   : 820 pixels
  23. Display aspect ratio                     : 2.35:1
  24. Frame rate mode                          : Constant
  25. Frame rate                               : 24.000 FPS
  26. Color space                              : YUV
  27. Chroma subsampling                       : 4:2:0
  28. Bit depth                                : 10 bits
  29. Bits/(Pixel*Frame)                       : 0.175
  30. Stream size                              : 4.49 GiB (91%)
  31. Title                                    : 视频
  32. Default                                  : Yes
  33. Forced                                   : No
  34. Color range                              : Limited
  35. Color primaries                          : BT.709
  36. Audio
  37. ID                                       : 2
  38. Format                                   : AC-3
  39. Format/Info                              : Audio Coding 3
  40. Commercial name                          : Dolby Digital
  41. Codec ID                                 : A_AC3
  42. Duration                                 : 1 h 37 min
  43. Bit rate mode                            : Constant
  44. Bit rate                                 : 640 kb/s
  45. Channel(s)                               : 6 channels
  46. Channel layout                           : L R C LFE Ls Rs
  47. Sampling rate                            : 48.0 kHz
  48. Frame rate                               : 31.250 FPS (1536 SPF)
  49. Compression mode                         : Lossy
  50. Stream size                              : 445 MiB (9%)
  51. Title                                    : 法语
  52. Language                                 : French
  53. Service kind                             : Complete Main
  54. Default                                  : Yes
  55. Forced                                   : No
  56. Text #1
  57. ID                                       : 3
  58. Format                                   : PGS
  59. Muxing mode                              : zlib
  60. Codec ID                                 : S_HDMV/PGS
  61. Codec ID/Info                            : Picture based subtitle format used on BDs/HD-DVDs
  62. Duration                                 : 1 h 32 min
  63. Bit rate                                 : 21.2 kb/s
  64. Count of elements                        : 1742
  65. Stream size                              : 13.9 MiB (0%)
  66. Title                                    : 简中
  67. Language                                 : Chinese
  68. Default                                  : Yes
  69. Forced                                   : No
  70. Text #2
  71. ID                                       : 4
  72. Format                                   : PGS
  73. Muxing mode                              : zlib
  74. Codec ID                                 : S_HDMV/PGS
  75. Codec ID/Info                            : Picture based subtitle format used on BDs/HD-DVDs
  76. Duration                                 : 1 h 32 min
  77. Bit rate                                 : 21.7 kb/s
  78. Count of elements                        : 1742
  79. Stream size                              : 14.3 MiB (0%)
  80. Title                                    : 繁中
  81. Language                                 : Chinese
  82. Default                                  : No
  83. Forced                                   : No





此处一般会放置磁力链或种子下载链接,不过此链接需要注册会员才能看到,点击“立即注册”
磁力链下载【下载链接仅对注册会员开放,登陆后可见】
BT9527电影天堂 1、BT9527电影天堂提供的BT文件均来源于互联网抓取,只供网友学习交流、技术提升使用。
2、我们遵守BitTorrent点对点协议原则,任何版权问题请联系原资源发布商,我们不处理任何版权纠纷,谢谢!如有争议请联系邮箱:BT9527#hotmail.com(#换成@)
3、如果您发现某页面或地址有错误,请联系站长邮箱BT9527#hotmail.com(#换成@),我们会尽快处理。您的热心是对BT9527电影天堂最大的支持。
4、本站建议去正规影院观看电影以支持电影行业发展。
最新回复 (1)
  • xu529 25天前
    2
    不可撤销

你可以在 登录 or 注册 后,对此帖发表评论!

返回
发新帖